Поздравляем всех с переездом на новый сервер.

[PornstarsLikeitBig.com \ Brazzers.com] Carmella Bing, Gianna Michaels, Shyla Stylez (Ultimate dream team / 29.08.2007) [2007 г., Big Ass, Big Tits, Big Tits Worship, Black Hair, Blonde, Brunette, Foursome, MILF, Natural Tits, Work Fantasies]

Reply to topic
DL-List and Torrent activity
Size:  382 MB   |    Registered:  29 days   |    Completed:  0 times
 
     
 
 
 
Author Message

-WhatTheFuck ®

Gender: Male

Longevity: 3 years 4 months

Posts: 6569

Location: CCCP

Post 23-Jun-2019 04:05

[Quote]


Имя актрисы: Carmella Bing, Gianna Michaels, Shyla Stylez
Название ролика: Ultimate dream team
Дата релиза: 29.08.2007
Подсайт и сайт: PornstarsLikeitBig.com \ Brazzers.com
Год производства: 2007 г.
Жанр: Big Ass, Big Tits, Big Tits Worship, Black Hair, Blonde, Brunette, Foursome, MILF, Natural Tits, Work Fantasies
Продолжительность: 00:47:09
Описание: No, you're not dreaming fellas, this shit is for real!! Three of the hottest (and horniest) pornstars out there are together and this time they take on Johnny Sins' (aka the luckiest man on earth) 12 inch cock like there is no tomorrow!! They REALLY fucked the shit out of that HUGE COCK! Johnny of course, thanked them by putting a big load on these three babes' big tits and faces to make this scene the best four some scene EVER!!! Enjoy!
Формат видео: MP4
Видео: MPEG4 Video (H264) 640x480 25fps 998kbps
Аудио: AAC 48000Hz stereo 127kbps

Тех. данные

Ultimate dream team.mp4
General
Complete name : Ultimate dream team.mp4
Format : MPEG-4
Format profile : Base Media
Codec ID : isom (isom/iso2/avc1/mp41)
File size : 382 MiB
Duration : 47 min 8 s
Overall bit rate mode : Variable
Overall bit rate : 1 132 kb/s
Writing application : Lavf54.63.104
Video #1
ID : 1
Format : AVC
Format/Info : Advanced Video Codec
Format profile : [email protected]
Format settings, CABAC : Yes
Format settings, ReFrames : 4 frames
Codec ID : avc1
Codec ID/Info : Advanced Video Coding
Duration : 47 min 8 s
Bit rate : 1 000 kb/s
Width : 640 pixels
Height : 480 pixels
Display aspect ratio : 4:3
Frame rate mode : Constant
Frame rate : 25.000 FPS
Color space : YUV
Chroma subsampling : 4:2:0
Bit depth : 8 bits
Scan type : Progressive
Bits/(Pixel*Frame) : 0.130
Stream size : 337 MiB (88%)
Writing library : x264 core 142 r2389 956c8d8
Encoding settings : cabac=1 / ref=3 / deblock=1:0:0 / analyse=0x3:0x113 / me=hex / subme=7 / psy=1 / psy_rd=1.00:0.00 / mixed_ref=1 / me_range=16 / chroma_me=1 / trellis=1 / 8x8dct=1 / cqm=0 / deadzone=21,11 / fast_pskip=1 / chroma_qp_offset=-2 / threads=2 / lookahead_threads=1 / sliced_threads=0 / nr=0 / decimate=1 / interlaced=0 / bluray_compat=0 / constrained_intra=0 / bframes=3 / b_pyramid=2 / b_adapt=1 / b_bias=0 / direct=1 / weightb=1 / open_gop=0 / weightp=2 / keyint=250 / keyint_min=25 / scenecut=40 / intra_refresh=0 / rc_lookahead=40 / rc=abr / mbtree=1 / bitrate=1000 / ratetol=1.0 / qcomp=0.60 / qpmin=0 / qpmax=69 / qpstep=4 / vbv_maxrate=1750 / vbv_bufsize=2000 / nal_hrd=none / filler=0 / ip_ratio=1.40 / aq=1:1.00
Audio #2
ID : 2
Format : AAC
Format/Info : Advanced Audio Codec
Format profile : LC
Codec ID : 40
Duration : 47 min 8 s
Bit rate mode : Variable
Bit rate : 128 kb/s
Maximum bit rate : 1 750 kb/s
Channel(s) : 2 channels
Channel positions : Front: L R
Sampling rate : 48.0 kHz
Frame rate : 46.875 FPS (1024 spf)
Compression mode : Lossy
Stream size : 43.2 MiB (11%)
Default : Yes
Alternate group : 1

Скриншоты

[pdenis.com].t59697.torrent 
Torrent: Registered [ 2019-06-23 04:05 ] · F09D1DFB4C258B44A85E4B088EECDD3F612C4FC9

Download .torrent

Download

15 KB

Status: checked
Completed: 0 times
Size: 382 MB
terms.php
сказать спасибо


Последние поблагодарившие

Наш сайт Порнодэнис рекомендует. Нажимай на картинки, все картинки являются ссылками на релизы

[Profile] [PM]
Display posts:    
Reply to topic

Current time is: 22-Jul 12:43

All times are UTC + 3



You cannot post new topics in this forum
You cannot reply to topics in this forum
You cannot edit your posts in this forum
You cannot delete your posts in this forum
You cannot vote in polls in this forum
You cannot attach files in this forum
You can download files in this forum