Поздравляем всех с переездом на новый сервер.

Oppai cafe - Hahako de kosu chichi / Be koss chichi - The motion anime in breast cafe - Mother daughter (ammoraito, survive) (ep. 1 of 1) [cen] [2018, big breast, waitress, virgin, cosplay, oral, paizuri, handjob, group, creampie WEB-DL] [jap] [576p]

Reply to topic
 
Author Message

-WhatTheFuck ®

Gender: Male

Longevity: 3 years 3 months

Posts: 6569

Location: CCCP

Post 14-May-2019 15:40

[Quote]

Oppai cafe - Hahako de kosu chichi
Be koss chichi - The motion anime in breast cafe - Mother daughter
おっぱいカフェ ~母娘でコスちち~ The Motion Anime

Год выпуска: 2018
Жанр: big breast, waitress, virgin, cosplay, oral, paizuri, handjob, group, creampie
Серии: ep. 1 of 1
Продолжительность: 51mn
Цензура: Есть во всех файлах
Озвучка: Японская оригинальная
Субтитры: Японские встроенные неотключаемые (хардсаб)
Студия: ammoraito / アンモライト, survive
Описание: PC gaming "breast cafe - Mother Daughter Koss Chichi ..." motion Anime! Character Designer "Ichikawanoa" X scenario writer "Sakamoto star day!" The fascinating Mother Daughter which draws no! Be the subjects to the breast! Chip it anything other than a factor to support it, and be concise, and be plain! Be full of Cosplay Play! The now product "Character Designer is pursuit masu in fascinating, sweet `breast' to describe it in of the Ichikawanoa" earnestly! As well as `'`' to sandwich to rub, packed the Costume Situation which I played, and it was possible for in + `breast' more attractively of various `breast' to the limit! The one which it is not in Character Designer fans, and can be satisfied with alien from `breast' very much! .
◇Outline
…The management of the shop is not good. ryo kunaitoiuyorimazuidaro, this" Mother acts as a storekeeper, and while sharyo goes to the Campus with me, help me, and run it My father who sighs while turning up the account book of the cafe. The cause that a visitor decreases to has a Maid cafe near these days, Be because I have visitor stolen there. "In other words, be Koto when our shop is opposed and should make a costume play" In a hnd of my father swearing casually, Clothes like the Cosplay……Catch it, and many really close clothes be raised, Is opened with Bamban before all the families. "Be so, as for making such an appearance, there is no help for it for the management effort……wayonee……" In a sense mother is the Type which is not shaken by things in quiet Natural system. Because be considerably forcible, and be married to my father with the place without the projecting time, Can accept even such a ton demonstration suggestion as such? "A……I hate da, no use……Unreasonableness, ze, absolute unreasonableness……!" Did a face red-hot, and waved a neck buzzingly, and sharyo jumped out of a room. It is naa……rodanante where I wear it, and this is in a shop, Be Torture let alone a Batsu game for that fellow. ……toiuwakeda, Kazuki. Were all right, and engaged mother and sharyo, two people" Broke up in this afterwards because my father left the room following sharyo on that day. And although, from next day, sharyo remains the same before, Mother changed into her new clothes of my father recommendation, and would appear in the shop.
◇Heroine 1
Name: Tasuku Iwagami capital Bi (Satomi Yamakawa) A voice actor: Natsukawa Nana Bi (Natsu Nami Kawana) Size: Big Tits Setting: Mother of the quiet Natural system. Love it even if I put Kazuki in the eyes so as not to have a pain. In the cafe, be in charge of a hall
◇Heroine 2
Name: Good Iwagami lawn (Yamakawa Sara) A voice actor: Four no shrine Hina (Shinomiya Hina) Size: Regular milk Setting: Younger Sister of the Kazuki. Virgin.
Be shy, and be slightly being timid. Be misled into thinking that an older brother, Kazuki like Big Tits. In the cafe, be in charge of a hall.
◇Main character
Name: Iwagami Kazuki (Kazuki Yamakawa) Setting: Student. In the cafe, be in charge of Chuubou A breast enthusiast.
◇Mob
Name: Masahiko Iwagami (Masahiko Yamakawa) Setting: Be father of Kazuki, sharyo in husbands of *tobi
◆ Character Designer: Ichikawanoa (Ichikawa Noah)
◆ Story: Sakamoto star day (sakamotoseinichi)
◆ A voice actor: Tasuku Iwagami capital Bi (Satomi Yamakawa) / CV. Natsukawa Nana Bi (Natsu Nami Kawana) / four no shrine Hina (Shinomiya Hina) having good Iwagami lawn (Yamakawa Sara)
https://www.dmm.co.jp/en/dc/doujin/-/detail/=/cid=d_134571/
https://www.dlsite.com/pro/announce/=/product_id/VJ012221.html
Качество видео: WEB-DL
Разрешение видео: 576p
Формат видео: MP4
Видео: 1024-576, 16-9, 29.97 fps, AVC, 500 kbps
Аудио: jpn, AAC, Stereo, 44.1 / 22.05 KHz, 26.4 kbps

Скринлист

MediaInfo

General
Complete name : Oppai_cafe_-_Hahako_de_kosu_chichi_[CAC1286D].mp4
Format : MPEG-4
Format profile : Base Media
Codec ID : isom (isom/avc1)
File size : 194 MiB
Duration : 51 min 16 s
Overall bit rate mode : Variable
Overall bit rate : 530 kb/s
Encoded date : UTC 2018-11-13 06:41:06
Tagged date : UTC 2018-11-13 06:41:06
Video
ID : 1
Format : AVC
Format/Info : Advanced Video Codec
Format profile : [email protected]
Format settings : CABAC / 8 Ref Frames
Format settings, CABAC : Yes
Format settings, RefFrames : 8 frames
Codec ID : avc1
Codec ID/Info : Advanced Video Coding
Duration : 51 min 16 s
Bit rate : 500 kb/s
Maximum bit rate : 2 146 kb/s
Width : 1 024 pixels
Height : 576 pixels
Display aspect ratio : 16:9
Frame rate mode : Constant
Frame rate : 29.970 (30000/1001) FPS
Color space : YUV
Chroma subsampling : 4:2:0
Bit depth : 8 bits
Scan type : Progressive
Bits/(Pixel*Frame) : 0.028
Stream size : 183 MiB (94%)
Writing library : x264 core 146 r2538 121396c
Encoding settings : cabac=1 / ref=8 / deblock=1:1:0 / analyse=0x1:0x111 / me=hex / subme=7 / psy=1 / psy_rd=0.40:0.00 / mixed_ref=1 / me_range=16 / chroma_me=1 / trellis=1 / 8x8dct=0 / cqm=0 / deadzone=21,11 / fast_pskip=1 / chroma_qp_offset=-2 / threads=12 / lookahead_threads=2 / sliced_threads=0 / nr=0 / decimate=1 / interlaced=0 / bluray_compat=0 / constrained_intra=0 / bframes=6 / b_pyramid=2 / b_adapt=1 / b_bias=0 / direct=1 / weightb=1 / open_gop=0 / weightp=2 / keyint=285 / keyint_min=27 / scenecut=40 / intra_refresh=0 / rc_lookahead=40 / rc=2pass / mbtree=1 / bitrate=500 / ratetol=1.0 / qcomp=0.60 / qpmin=10 / qpmax=51 / qpstep=4 / cplxblur=20.0 / qblur=0.5 / vbv_maxrate=20000 / vbv_bufsize=25000 / nal_hrd=none / filler=0 / ip_ratio=1.40 / aq=2:0.60
Encoded date : UTC 2018-11-13 06:41:06
Tagged date : UTC 2018-11-13 06:41:12
Audio
ID : 2
Format : AAC
Format/Info : Advanced Audio Codec
Format profile : HE-AAC / LC
Format settings : Explicit
Codec ID : mp4a-40-2
Duration : 51 min 16 s
Bit rate mode : Variable
Bit rate : 26.4 kb/s
Maximum bit rate : 40.2 kb/s
Channel(s) : 2 channels
Channel positions : Front: L R
Sampling rate : 44.1 kHz / 22.05 kHz
Frame rate : 21.533 FPS (1024 SPF)
Compression mode : Lossy
Stream size : 9.67 MiB (5%)
Encoded date : UTC 2018-11-13 05:26:15
Tagged date : UTC 2018-11-13 06:41:12
сказать спасибо


Последние поблагодарившие

Наш сайт Порнодэнис рекомендует. Нажимай на картинки, все картинки являются ссылками на релизы

[Profile] [PM]
Display posts:    
Reply to topic

Current time is: 26-Jun 08:45

All times are UTC + 3



You cannot post new topics in this forum
You cannot reply to topics in this forum
You cannot edit your posts in this forum
You cannot delete your posts in this forum
You cannot vote in polls in this forum
You cannot attach files in this forum
You cannot download files in this forum