Поздравляем всех с переездом на новый сервер.

collector (Dream) (ep. 1-2 of 2) [cen] [2001, maid, monsters, school, succubus, futanari, DVDRip] [jap]

Reply to topic
DL-List and Torrent activity
Size:  432 MB   |    Registered:  2 years 1 month   |    Completed:  0 times
 
     
 
 
 
Author Message

buratino5 ®

Gender: Male

Longevity: 3 years 7 months

Posts: 1341

Post 30-Aug-2017 00:51

[Quote]

collector
COLLECTOR 1 (「影牢」「触欲」「赫い雪」)
COLLECTOR 2 (「夏…風の中で1&2」「NEMU×NEMU」「精霊賛歌」)

Год выпуска: 2001
Жанр: maid, monsters, school, succubus, futanari
Серии: ep. 1-2 of 2
Продолжительность: 24+31mn
Цензура: Есть во всех файлах
Озвучка: Японская оригинальная
Студия: Dream
Описание: Набор каких-то работ. Нужна хоть какая-то информация, что это такое вообще.
http://www.dlsite.com/pro/work/=/product_id/VJ003007.html
http://www.dlsite.com/pro/work/=/product_id/VJ003006.html
Качество видео: DVDRip
Разрешение видео: 480p
Формат видео: AVI
Видео: 512-384 (ep. 1), 640-480 (ep. 2), 4-3, 29.97 fps (ep. 1), VFR (ep. 2), DivX 5 (ep. 1), XviD (ep. 2), 369 kbps (ep. 1), 1262 kbps (ep. 2)
Аудио: jpn, MP3, Stereo, 48.0 KHz, 192 kbps

Скринлисты

DVDcover

log

MediaInfo 01

General
Complete name : collector_01_[hshare.net][B62313E5].avi
Format : AVI
Format/Info : Audio Video Interleave
File size : 98.0 MiB
Duration : 23 min 52 s
Overall bit rate mode : Variable
Overall bit rate : 574 kb/s
Writing application : Nandub v1.0rc2
Writing library : Nandub build 1852/release
Video
ID : 0
Format : MPEG-4 Visual
Format settings, BVOP : 1
Format settings, QPel : No
Format settings, GMC : No warppoints
Format settings, Matrix : Default (H.263)
Muxing mode : Packed bitstream
Codec ID : DX50
Codec ID/Hint : DivX 5
Duration : 23 min 52 s
Bit rate : 369 kb/s
Width : 512 pixels
Height : 384 pixels
Display aspect ratio : 4:3
Frame rate : 29.970 (30000/1001) FPS
Color space : YUV
Chroma subsampling : 4:2:0
Bit depth : 8 bits
Scan type : Progressive
Compression mode : Lossy
Bits/(Pixel*Frame) : 0.063
Stream size : 62.9 MiB (64%)
Writing library : DivX 5.0.1 (UTC 2002-04-09)
Audio
ID : 1
Format : MPEG Audio
Format version : Version 1
Format profile : Layer 3
Mode : Joint stereo
Mode extension : MS Stereo
Codec ID : 55
Codec ID/Hint : MP3
Duration : 23 min 52 s
Bit rate mode : Variable
Bit rate : 192 kb/s
Channel(s) : 2 channels
Sampling rate : 48.0 kHz
Compression mode : Lossy
Stream size : 32.7 MiB (33%)
Alignment : Aligned on interleaves
Interleave, duration : 24 ms (0.72 video frame)
Interleave, preload duration : 492 ms
Writing library : LAME3.92
Encoding settings : -m j -V 2 -q 2 -lowpass 19 --vbr-old

MediaInfo 02

General
Complete name : collector_02_[hshare.net][A2648E05].avi
Format : AVI
Format/Info : Audio Video Interleave
File size : 332 MiB
Duration : 30 min 56 s
Overall bit rate : 1 500 kb/s
Writing library : This file was made by AviUtl 0.99.
Video
ID : 0
Format : MPEG-4 Visual
Format settings, BVOP : No
Format settings, QPel : No
Format settings, GMC : No warppoints
Format settings, Matrix : Default (H.263)
Codec ID : XVID
Codec ID/Hint : XviD
Duration : 30 min 56 s
Bit rate : 1 262 kb/s
Width : 640 pixels
Height : 480 pixels
Display aspect ratio : 4:3
Frame rate mode : Variable
Frame rate : 120.000 (24/30) FPS
Minimum frame rate : 24.000 FPS
Maximum frame rate : 30.000 FPS
Original frame rate : 25.000 FPS
Color space : YUV
Chroma subsampling : 4:2:0
Bit depth : 8 bits
Scan type : Progressive
Compression mode : Lossy
Bits/(Pixel*Frame) : 0.034
Stream size : 279 MiB (84%)
Audio
ID : 1
Format : MPEG Audio
Format version : Version 1
Format profile : Layer 3
Codec ID : 55
Codec ID/Hint : MP3
Duration : 30 min 56 s
Bit rate mode : Constant
Bit rate : 192 kb/s
Channel(s) : 2 channels
Sampling rate : 48.0 kHz
Compression mode : Lossy
Stream size : 42.5 MiB (13%)
Alignment : Split accross interleaves
Interleave, duration : 8 ms (1.00 video frame)
Interleave, preload duration : 8 ms
[pdenis.com].t21293.torrent 
Torrent: Registered [ 2017-08-30 00:51 ] · 8B6878134E685F160804C3C56489642961B956C6

Download .torrent

Download

18 KB

Status: checked
Completed: 0 times
Size: 432 MB
terms.php
сказать спасибо


Последние поблагодарившие

Наш сайт Порнодэнис рекомендует. Нажимай на картинки, все картинки являются ссылками на релизы

[Profile] [PM]
Display posts:    
Reply to topic

Current time is: 22-Oct 22:01

All times are UTC + 3



You cannot post new topics in this forum
You cannot reply to topics in this forum
You cannot edit your posts in this forum
You cannot delete your posts in this forum
You cannot vote in polls in this forum
You cannot attach files in this forum
You can download files in this forum