Релизера можно поддержать материально. Реквизиты чуть выше подписи. Нажмите на спасибо и поблагодарите

Suimin busoku Zzz... (Nighthawk) (ep. 1 of 1) [cen] [2013, straight, oral, bukkake, creampie, various, GameRip] [jap] [720p]

Reply to topic
DL-List and Torrent activity
Size:  91 MB   |    Registered:  2 years 5 months   |    Completed:  1 time
 
     
 
 
 
Author Message

buratino5 ®

Gender: Male

Longevity: 3 years 11 months

Posts: 1341

Post 29-Aug-2017 17:20

[Quote]

Suimin busoku Zzz...
すいみん不足ZZZ…

Год выпуска: 2013
Жанр: straight, oral, bukkake, creampie, various
Серии: ep. 1 of 1
Продолжительность: 28mn
Цензура: Есть во всех файлах
Озвучка: Японская оригинальная
Субтитры: Японские встроенные неотключаемые (хардсаб)
Студия: Nighthawk
Описание: Гуглоперевод! Girls who are falling asleep everywhere. If you extend your hands you can touch plenty breasts, plump lip,... It will be held in such familiar situations.
http://www.dlsite.com/maniax/work/=/product_id/RJ112973.html
Качество видео: GameRip
Разрешение видео: 720p
Формат видео: MP4
Видео: 1024-768, 4-3, 30 fps, AVC, 424 kbps
Аудио: jpn, AAC, Mono, 44.1 / 22.05 KHz, 14.5 kbps

Скринлист

MediaInfo

General
Complete name : Suimin_busoku_Zzz..._[8E91788B].mp4
Format : MPEG-4
Format profile : Base Media
Codec ID : isom (isom/avc1)
File size : 89.9 MiB
Duration : 28 min 26 s
Overall bit rate mode : Variable
Overall bit rate : 442 kb/s
Encoded date : UTC 2016-11-18 03:45:36
Tagged date : UTC 2016-11-18 03:45:36
Video
ID : 1
Format : AVC
Format/Info : Advanced Video Codec
Format profile : [email protected]
Format settings, CABAC : Yes
Format settings, ReFrames : 8 frames
Codec ID : avc1
Codec ID/Info : Advanced Video Coding
Duration : 28 min 26 s
Bit rate : 424 kb/s
Maximum bit rate : 3 171 kb/s
Width : 1 024 pixels
Height : 768 pixels
Display aspect ratio : 4:3
Frame rate mode : Constant
Frame rate : 30.000 FPS
Color space : YUV
Chroma subsampling : 4:2:0
Bit depth : 8 bits
Scan type : Progressive
Bits/(Pixel*Frame) : 0.018
Stream size : 86.3 MiB (96%)
Writing library : x264 core 146 r2538 121396c
Encoding settings : cabac=1 / ref=8 / deblock=1:1:0 / analyse=0x1:0x111 / me=hex / subme=7 / psy=1 / psy_rd=0.40:0.00 / mixed_ref=1 / me_range=16 / chroma_me=1 / trellis=1 / 8x8dct=0 / cqm=0 / deadzone=21,11 / fast_pskip=1 / chroma_qp_offset=-2 / threads=12 / lookahead_threads=2 / sliced_threads=0 / nr=0 / decimate=1 / interlaced=0 / bluray_compat=0 / constrained_intra=0 / bframes=6 / b_pyramid=2 / b_adapt=1 / b_bias=0 / direct=1 / weightb=1 / open_gop=0 / weightp=2 / keyint=286 / keyint_min=27 / scenecut=40 / intra_refresh=0 / rc_lookahead=40 / rc=2pass / mbtree=1 / bitrate=424 / ratetol=1.0 / qcomp=0.60 / qpmin=10 / qpmax=51 / qpstep=4 / cplxblur=20.0 / qblur=0.5 / vbv_maxrate=20000 / vbv_bufsize=25000 / nal_hrd=none / filler=0 / ip_ratio=1.40 / aq=2:0.60
Encoded date : UTC 2016-11-18 03:45:36
Tagged date : UTC 2016-11-18 03:45:42
Audio
ID : 2
Format : AAC
Format/Info : Advanced Audio Codec
Format profile : HE-AAC / LC
Codec ID : 40
Duration : 28 min 26 s
Bit rate mode : Variable
Bit rate : 14.5 kb/s
Maximum bit rate : 19.7 kb/s
Channel(s) : 1 channel
Channel positions : Front: C
Sampling rate : 44.1 kHz / 22.05 kHz
Frame rate : 21.533 FPS (1024 spf)
Compression mode : Lossy
Stream size : 2.95 MiB (3%)
Encoded date : UTC 2016-11-18 03:22:39
Tagged date : UTC 2016-11-18 03:45:42
[pdenis.com].t21264.torrent 
Torrent: Registered [ 2017-08-29 17:20 ] · DAE11715D58090D799DE196E663B8F9D6B63E773

Download .torrent

Download

15 KB

Status: checked
Completed: 1 times
Size: 91 MB
terms.php
сказать спасибо


Последние поблагодарившие

[Profile] [PM]

RichardOvj

Gender: Male

Longevity: 3 months 3 days

Posts: 1

Location: Armenia

Post 21-Nov-2019 21:01 (after 2 years 2 months)

[Quote]

http://www.canadianpharmacyonlinehq.com - canada rx <a href=http://www.canadianpharmacyonlinehq.com/#>drug canada</a>
[Profile] [PM]

NathanielOuy

Gender: Male

Longevity: 12 days

Posts: 1

Location: Costa Rica

Post 12-Feb-2020 20:41 (after 2 months 20 days)

[Quote]

Howdy! http://dapoxetine4.com - where buy priligy beneficial internet site
[Profile] [PM]
Display posts:    
Reply to topic

Current time is: 25-Feb 09:49

All times are UTC + 3



You cannot post new topics in this forum
You cannot reply to topics in this forum
You cannot edit your posts in this forum
You cannot delete your posts in this forum
You cannot vote in polls in this forum
You cannot attach files in this forum
You can download files in this forum