Релизера можно поддержать материально. Реквизиты чуть выше подписи. Нажмите на спасибо и поблагодарите

Asa Akira Is Insatiable / Ненасытная Аса Акира (Mason / Elegant Angel) [2010, Gonzo, Anal, DP, Straight, 720p, BDRip]

Reply to topic
DL-List and Torrent activity
Size:  6.56 GB   |    Registered:  1 year 5 months   |    Completed:  3 times
 
     
 
 
 
Author Message

Leobret ®

Gender: Male

Longevity: 4 years 4 months

Posts: 116

Post 02-Mar-2017 10:11

[Quote]

Asa Akira Is Insatiable / Ненасытная Аса Акира

Год производства: 2010 | Страна: USA | Жанр: Gonzo, Anal, DP, Straight
Режиссер: Mason | Студия: Elegant Angel | Продолжительность: 03:44:12
Язык: Английский
В ролях:
Asa Akira, Manuel Ferrara, Erik Everhard, Toni Ribas
Описание:
Asa's 1st Anal & D.P.!
The exotic and beautiful Asa Akira performs in her 1st anal scene with AVN male performer of the year, Manuel Ferrara, in Asa Akira Is Insatiable, directed by the award winning Mason. The movie also features her 1st D.P. scene with Erik Everhard & Toni Ribas.
Тип HD видео: 720p | Качество видео: BDRip | Формат видео: MKV
Видео: MPEG4 Video (H264) 1280x720 23.976 fps 3930 Kbps | Аудио: AC3, 256 Kbps, 2 channels, 48.0 KHz

MediaInfo

General
Complete name                    : chi-akira-720p.mkv
Format                           : Matroska
File size                        : 6.56 GiB
Duration                         : 3h 44mn
Overall bit rate                 : 4 188 Kbps
Encoded date                     : UTC 2011-02-19 11:22:55
Writing application              : mkvmerge v4.4.0 ('Die Wiederkehr') gebaut am Oct 31 2010 21:52:48
Writing library                  : libebml v1.0.0 + libmatroska v1.0.0
Video
ID                               : 1
Format                           : AVC
Format/Info                      : Advanced Video Codec
Format profile                   : [email protected]
Format settings, CABAC           : Yes
Format settings, ReFrames        : 4 frames
Muxing mode                      : Header stripping
Codec ID                         : V_MPEG4/ISO/AVC
Duration                         : 3h 44mn
Bit rate                         : 3 930 Kbps
Width                            : 1 280 pixels
Height                           : 720 pixels
Display aspect ratio             : 16:9
Frame rate                       : 23.976 fps
Color space                      : YUV
Chroma subsampling               : 4:2:0
Bit depth                        : 8 bits
Scan type                        : Progressive
Bits/(Pixel*Frame)               : 0.178
Stream size                      : 6.03 GiB (92%)
Writing library                  : x264 core 112 r1867 22bfd31
Encoding settings                : cabac=1 / ref=4 / deblock=1:0:0 / analyse=0x3:0x133 / me=umh / subme=7 / psy=1 / psy_rd=1.00:0.00 / mixed_ref=1 / me_range=16 / chroma_me=0 / trellis=2 / 8x8dct=1 / cqm=0 / deadzone=21,11 / fast_pskip=0 / chroma_qp_offset=-2 / threads=12 / sliced_threads=0 / nr=0 / decimate=1 / interlaced=0 / constrained_intra=0 / bframes=4 / b_pyramid=2 / b_adapt=2 / b_bias=0 / direct=1 / weightb=1 / open_gop=0 / weightp=2 / keyint=250 / keyint_min=23 / scenecut=40 / intra_refresh=0 / rc_lookahead=40 / rc=2pass / mbtree=1 / bitrate=3930 / ratetol=1.0 / qcomp=0.60 / qpmin=10 / qpmax=51 / qpstep=4 / cplxblur=20.0 / qblur=0.5 / ip_ratio=1.40 / aq=1:1.00
Audio
ID                               : 2
Format                           : AC-3
Format/Info                      : Audio Coding 3
Mode extension                   : CM (complete main)
Muxing mode                      : Header stripping
Codec ID                         : A_AC3
Duration                         : 3h 44mn
Bit rate mode                    : Constant
Bit rate                         : 256 Kbps
Channel(s)                       : 2 channels
Channel positions                : Front: L R
Sampling rate                    : 48.0 KHz
Bit depth                        : 16 bits
Video delay                      : 24ms
Stream size                      : 411 MiB (6%)

Скриншоты

Альтернатива

[pdenis.com].t14071.torrent 
Torrent: Registered [ 2018-09-21 00:58 ] · 80974C3730CE45019637B4F875CFA0821A040CEF

Download .torrent

Download

33 KB

Status: checked
Completed: 3 times
Size: 6.56 GB
terms.php
сказать спасибо


Последние поблагодарившие

[Profile] [PM]

Lesmade

Gender: Male

Longevity: 1 month 2 days

Posts: 2077

Location: Taiwan

Post 28-Jan-2020 03:00 (after 2 years 10 months)

[Quote]

Acheter Dapoxetine En Ligne Buy Cialis Cialis 20mg 8 St Preisvergleich <a href=http://buyciallisonline.com>Cialis</a> Viagra En Fiv
[Profile] [PM]
Display posts:    
Reply to topic

Current time is: 23-Feb 22:44

All times are UTC + 3



You cannot post new topics in this forum
You cannot reply to topics in this forum
You cannot edit your posts in this forum
You cannot delete your posts in this forum
You cannot vote in polls in this forum
You cannot attach files in this forum
You can download files in this forum