Поздравляем всех с переездом на новый сервер.

Pia Carrot e Youkoso!! Gekijouban: Sayaka no Koi Monogatari / Welcome to Pia Carrot! Sayaka's Love Story / Сочная морковка: История любви Саяки (Mutou Yuuji / Geneon Entertainment, Inc.) (ep. 1) [uncen] [2002 г., Romance, Waitresses, DVD5] [jap]

Reply to topic
DL-List and Torrent activity
Size:  3.73 GB   |    Registered:  2 years   |    Completed:  0 times
 
     
 
 
 
Author Message

buratino5 ®

Gender: Male

Longevity: 3 years 6 months

Posts: 1637

Post 01-Sep-2017 18:29

[Quote]

font="AcademyCTT"]Piaキャロットへようこそ!! 劇場版 ~さやかの恋物語~
Pia Carrot e Youkoso!! Gekijouban: Sayaka no Koi Monogatari
Welcome to Pia Carrot! Sayaka's Love Story
Сочная морковка: История любви Саяки
-
Год выпуска: 2002
Страна: Япония-Жанр: romance, waitresses
Продолжительность: >1 эп. 50 мин.-Субтитры: Отсутствуют
Цензура: Отсутствует-Режиссёр: Mutou Yuuji
Студия: Geneon Entertainment, Inc.-Описание:
Sayaka is asked to help out at the opening summer of the newest Pia Carrot restaurant on the beach. Reluctant to go due to her secretive crush on her coworker Akihiko, she nevertheless agrees to her manager's request. Arriving to a sunny paradise, she still cannot find peace and longs for the strength to confess her feelings. Will the summer apart fade her heart or will the longing give her the power to express her feelings?-Информационные ссылки: AniDB || MAL || World Art || АниМаг-Исходник: DVD-5
Видео: MPEG2 | NTSC | 16x9 | 720x480 | 9800 Kbps
Аудио JAP: AC-3 | 48000Hz | 384 Kbps | 2ch

Список эпизодов:

01. Complete Movie

MediaInfo:

General
Complete name : L:\VIDEO_TS\VTS_01_1.VOB
Format : MPEG-PS
File size : 1 024 MiB
Duration : 17mn 5s
Overall bit rate mode : Variable
Overall bit rate : 8 377 Kbps
Video
ID : 224 (0xE0)
Format : MPEG Video
Format version : Version 2
Format profile : [email protected]
Format settings, BVOP : Yes
Format settings, Matrix : Custom
Duration : 17mn 5s
Bit rate mode : Variable
Bit rate : 7 827 Kbps
Maximum bit rate : 9 800 Kbps
Width : 720 pixels
Height : 480 pixels
Display aspect ratio : 16:9
Frame rate : 29.970 fps
Standard : NTSC
Color space : YUV
Chroma subsampling : 4:2:0
Bit depth : 8 bits
Scan type : Interlaced
Scan order : Top Field First
Compression mode : Lossy
Bits/(Pixel*Frame) : 0.756
Stream size : 957 MiB (93%)
Audio
ID : 189 (0xBD)-128 (0x80)
Format : AC-3
Format/Info : Audio Coding 3
Mode extension : CM (complete main)
Muxing mode : DVD-Video
Duration : 17mn 5s
Bit rate mode : Constant
Bit rate : 384 Kbps
Channel(s) : 6 channels
Channel positions : Front: L C R, Side: L R, LFE
Sampling rate : 48.0 KHz
Bit depth : 16 bits
Compression mode : Lossy
Stream size : 46.9 MiB (5%)

Меню:

Скриншоты:

Скринлист:

[pdenis.com].t21353.torrent 
Torrent: Registered [ 2017-09-01 18:30 ] · 642C8ABB6D42980C79984B47DF41BF119D8E63DF

Download .torrent

Download

19 KB

Status: checked
Completed: 0 times
Size: 3.73 GB
terms.php
сказать спасибо


Последние поблагодарившие

Наш сайт Порнодэнис рекомендует. Нажимай на картинки, все картинки являются ссылками на релизы

[Profile] [PM]
Display posts:    
Reply to topic

Current time is: 20-Sep 09:20

All times are UTC + 3



You cannot post new topics in this forum
You cannot reply to topics in this forum
You cannot edit your posts in this forum
You cannot delete your posts in this forum
You cannot vote in polls in this forum
You cannot attach files in this forum
You can download files in this forum