Релизера можно поддержать материально. Реквизиты чуть выше подписи. Нажмите на спасибо и поблагодарите

Oppai of the dead (Nighthawk) (ep. 1 of 1) [cen] [2014, rape, oral, anal, paizuri, group, creampie, zobmi, various, GameRip] [jap] [720p]

Reply to topic
DL-List and Torrent activity
Size:  86 MB   |    Registered:  2 years 2 months   |    Completed:  2 times
 
     
 
 
 
Author Message

buratino5 ®

Gender: Male

Longevity: 3 years 8 months

Posts: 1341

Post 29-Aug-2017 17:22

[Quote]

Oppai of the dead
おっぱいオブザデッド

Год выпуска: 2014
Жанр: rape, oral, anal, paizuri, group, creampie, zobmi, various
Серии: ep. 1 of 1
Продолжительность: 29mn
Цензура: Есть во всех файлах
Озвучка: Японская оригинальная
Субтитры: Японские встроенные неотключаемые (хардсаб)
Студия: Nighthawk
Описание: Гуглоперевод! A certain city in America that the military developed bacterial weapons have been exploited and turned into a zombie city. It was Tina Gruber, a special forces member barely surviving. Helping a civilian person falls into a further crisis...
http://www.dlsite.com/maniax/work/=/product_id/RJ134647.html
Качество видео: GameRip
Разрешение видео: 720p
Формат видео: MP4
Видео: 1024-768, 4-3, 28.305 fps, AVC, 399 kbps
Аудио: jpn, AAC, Mono, 44.1 / 22.05 KHz, 14.4 kbps

Скринлист

MediaInfo

General
Complete name : Oppai_of_the_dead_[BD6AC699].mp4
Format : MPEG-4
Format profile : Base Media
Codec ID : isom (isom/avc1)
File size : 85.4 MiB
Duration : 28 min 40 s
Overall bit rate mode : Variable
Overall bit rate : 417 kb/s
Encoded date : UTC 2016-11-13 06:24:26
Tagged date : UTC 2016-11-13 06:24:26
Video
ID : 1
Format : AVC
Format/Info : Advanced Video Codec
Format profile : [email protected]
Format settings, CABAC : Yes
Format settings, ReFrames : 8 frames
Codec ID : avc1
Codec ID/Info : Advanced Video Coding
Duration : 28 min 40 s
Bit rate : 399 kb/s
Maximum bit rate : 2 141 kb/s
Width : 1 024 pixels
Height : 768 pixels
Display aspect ratio : 4:3
Frame rate mode : Constant
Frame rate : 28.305 FPS
Color space : YUV
Chroma subsampling : 4:2:0
Bit depth : 8 bits
Scan type : Progressive
Bits/(Pixel*Frame) : 0.018
Stream size : 81.9 MiB (96%)
Writing library : x264 core 146 r2538 121396c
Encoding settings : cabac=1 / ref=8 / deblock=1:1:0 / analyse=0x1:0x111 / me=hex / subme=7 / psy=1 / psy_rd=0.40:0.00 / mixed_ref=1 / me_range=16 / chroma_me=1 / trellis=1 / 8x8dct=0 / cqm=0 / deadzone=21,11 / fast_pskip=1 / chroma_qp_offset=-2 / threads=12 / lookahead_threads=2 / sliced_threads=0 / nr=0 / decimate=1 / interlaced=0 / bluray_compat=0 / constrained_intra=0 / bframes=6 / b_pyramid=2 / b_adapt=1 / b_bias=0 / direct=1 / weightb=1 / open_gop=0 / weightp=2 / keyint=269 / keyint_min=26 / scenecut=40 / intra_refresh=0 / rc_lookahead=40 / rc=2pass / mbtree=1 / bitrate=399 / ratetol=1.0 / qcomp=0.60 / qpmin=10 / qpmax=51 / qpstep=4 / cplxblur=20.0 / qblur=0.5 / vbv_maxrate=20000 / vbv_bufsize=25000 / nal_hrd=none / filler=0 / ip_ratio=1.40 / aq=2:0.60
Encoded date : UTC 2016-11-13 06:24:26
Tagged date : UTC 2016-11-13 06:24:43
Audio
ID : 2
Format : AAC
Format/Info : Advanced Audio Codec
Format profile : HE-AAC / LC
Codec ID : 40
Duration : 28 min 40 s
Bit rate mode : Variable
Bit rate : 14.4 kb/s
Maximum bit rate : 18.0 kb/s
Channel(s) : 1 channel
Channel positions : Front: C
Sampling rate : 44.1 kHz / 22.05 kHz
Frame rate : 21.533 FPS (1024 spf)
Compression mode : Lossy
Stream size : 2.95 MiB (3%)
Encoded date : UTC 2016-11-13 06:02:50
Tagged date : UTC 2016-11-13 06:24:43
[pdenis.com].t21266.torrent 
Torrent: Registered [ 2017-08-29 17:22 ] · 3DD4474B6C573E61F577410BFE81DB69DF61110B

Download .torrent

Download

14 KB

Status: checked
Completed: 2 times
Size: 86 MB
terms.php
сказать спасибо


Последние поблагодарившие

[Profile] [PM]

LilyOww

Gender: Male

Longevity: 20 days

Posts: 2

Location: Barbados

Post 28-Oct-2019 23:58 (after 2 years 1 month)

[Quote]

prozac online purchase prozac pills <a href=http://loprozac.info/#>buy fluoxetine online</a>
[Profile] [PM]

JamesHAW

Gender: Male

Longevity: 6 days

Posts: 147

Location: Honduras

Post 14-Nov-2019 17:09 (after 16 days)

[Quote]

http://canadian-drugsale.com pharmacy online viagra <a href=http://canadian-drugsale.com/#>caremark online pharmacy</a>
[Profile] [PM]
Display posts:    
Reply to topic

Current time is: 18-Nov 20:09

All times are UTC + 3



You cannot post new topics in this forum
You cannot reply to topics in this forum
You cannot edit your posts in this forum
You cannot delete your posts in this forum
You cannot vote in polls in this forum
You cannot attach files in this forum
You can download files in this forum